Jennifer Lopez - Love Dont Cost A Thing HD 720p Xclusive

::General::
Complete name : Jennifer Lopez - Love Don't Cost A Thing HD 720p(RaHuL {tHe HuNk})[Silver RG]\Jennifer Lopez - Love Don't Cost A Thing HD 720p(RaHuL {tHe HuNk})[Silver RG].mp4
Format : MPEG-4
Format profile : Base Media
Codec ID : isom
File size : 132 MiB
Duration : 5mn 7s
Overall bit rate : 3 611 Kbps
Encoded date : UTC 2011-07-29 04:36:15
Tagged date : UTC 2011-07-29 04:36:15


::Video::
ID : 1
Format : AVC
Format/Info : Advanced Video Codec
Format profile : High@L3.1
Format settings, CABAC : Yes
Format settings, ReFrames : 4 frames
Codec ID : avc1
Codec ID/Info : Advanced Video Coding
Duration : 5mn 7s
Bit rate : 3 225 Kbps
Maximum bit rate : 8 142 Kbps
Width : 1 280 pixels
Height : 720 pixels
Display aspect ratio : 16:9
Frame rate mode : Constant
Frame rate : 23.976 fps
Color space : YUV
Chroma subsampling : 4:2
Bit depth : 8 bits
Scan type : Progressive
Bits/(Pixel*Frame) : 0.146
Stream size : 118 MiB (89%)
Writing library : x264 core 115 r1937 aa21558::Audio::
ID : 2
Format : AAC
Format/Info : Advanced Audio Codec
Format profile : LC
Codec ID : 40
Duration : 5mn 7s
Bit rate mode : Variable
Bit rate : 384 Kbps
Maximum bit rate : 434 Kbps
Channel(s) : 6 channels
Channel positions : Front: L C R, Side: L R, LFE
Sampling rate : 48.0 KHz
Compression mode : Lossy
Stream size : 14.0 MiB (11%)
Encoded date : UTC 2011-07-29 04:36:19
Tagged date : UTC 2011-07-29 04:36:19


DOWNLOAD:
[Tylko zarejestrowani mogą widzieć linki. Kliknij Tutaj Aby Się Zarejestrować... Rejestracja trwa 30 sekund i jest darmowa!!]